<?xml version="1.0" standalone="no"?>
<!DOCTYPE svg PUBLIC "-//W3C//DTD SVG 1.1//EN" "http://www.w3.org/Graphics/SVG/1.1/DTD/svg11.dtd" >
<svg xmlns="http://www.w3.org/2000/svg">
<metadata>Generated by IcoMoon</metadata>
<defs>
<font id="icomoon" horiz-adv-x="512">
<font-face units-per-em="512" ascent="480" descent="-32" />
<missing-glyph horiz-adv-x="512" />
<glyph unicode="&#x20;" d="" horiz-adv-x="256" />
<glyph unicode="&#xe600;" d="M45.715 36.572h173.714v329.143h-182.857v-320q0-3.714 2.715-6.428t6.428-2.714zM438.857 45.714v320h-182.857v-329.143h173.714q3.714 0 6.428 2.714t2.714 6.428zM475.428 393.143v-347.428q0-18.857-13.428-32.286t-32.286-13.428h-384q-18.857 0-32.285 13.428t-13.428 32.286v347.428q0 18.857 13.428 32.286t32.285 13.428h384q18.857 0 32.286-13.428t13.428-32.286z" horiz-adv-x="476" />
<glyph unicode="&#xe601;" d="M292.572 137.143v-18.286q0-4-2.572-6.572t-6.572-2.572h-201.143q-4 0-6.572 2.572t-2.572 6.572v18.286q0 4 2.572 6.572t6.572 2.572h201.143q4 0 6.572-2.572t2.572-6.572zM292.572 210.286v-18.286q0-4-2.572-6.572t-6.572-2.572h-201.143q-4 0-6.572 2.572t-2.572 6.572v18.286q0 4 2.572 6.572t6.572 2.571h201.143q4 0 6.572-2.571t2.572-6.572zM36.572 36.572h292.572v219.428h-118.857q-11.429 0-19.429 8t-8 19.429v118.857h-146.286v-365.714zM219.429 292.572h107.429q-2.857 8.286-6.286 11.714l-89.428 89.428q-3.429 3.429-11.714 6.286v-107.428zM365.714 283.429v-256q0-11.428-8-19.428t-19.428-8h-310.857q-11.428 0-19.428 8t-8 19.428v384q0 11.428 8 19.428t19.428 8h182.857q11.429 0 25.143-5.714t21.714-13.714l89.143-89.143q8-8 13.714-21.714t5.714-25.143z" horiz-adv-x="366" />
<glyph unicode="&#xe602;" d="M484.572 365.714q11.428 0 19.428-8t8-19.428v-347.428q0-11.428-8-19.428t-19.428-8h-274.286q-11.428 0-19.428 8t-8 19.428v82.286h-155.429q-11.428 0-19.428 8t-8 19.428v192q0 11.428 5.715 25.143t13.714 21.715l116.572 116.572q8 8 21.715 13.714t25.143 5.714h118.857q11.428 0 19.428-8t8-19.428v-93.715q19.428 11.429 36.572 11.429h118.857zM329.143 304.857l-85.428-85.428h85.428v85.428zM146.286 414.572l-85.428-85.428h85.428v85.428zM202.286 229.714l90.286 90.286v118.857h-109.714v-118.857q0-11.428-8-19.428t-19.428-8h-118.857v-182.857h146.286v73.143q0 11.428 5.714 25.143t13.714 21.714zM475.428 0v329.143h-109.714v-118.857q0-11.428-8-19.428t-19.428-8h-118.857v-182.857h256z" />
<glyph unicode="&#xe603;" d="M219.429 438.857q59.715 0 110.143-29.428t79.857-79.857 29.428-110.143-29.428-110.143-79.857-79.857-110.143-29.428-110.143 29.428-79.857 79.857-29.428 110.143 29.428 110.143 79.857 79.857 110.143 29.428zM256 82.572v54.286q0 4-2.571 6.714t-6.286 2.714h-54.857q-3.714 0-6.572-2.857t-2.857-6.572v-54.286q0-3.714 2.857-6.572t6.572-2.857h54.857q3.714 0 6.286 2.714t2.571 6.714zM255.429 180.857l5.143 177.428q0 3.428-2.857 5.143-2.857 2.285-6.857 2.285h-62.857q-4 0-6.857-2.285-2.857-1.715-2.857-5.143l4.857-177.428q0-2.857 2.857-5t6.857-2.143h52.857q4 0 6.714 2.143t3 5z" horiz-adv-x="439" />
<glyph unicode="&#xe604;" d="M468.286 338.857q11.428-16.285 5.143-36.857l-78.572-258.857q-5.428-18.286-21.857-30.714t-35-12.428h-263.714q-22 0-42.428 15.286t-28.428 37.572q-6.857 19.143-0.571 36.286 0 1.143 0.857 7.714t1.143 10.572q0.285 2.286-0.857 6.143t-0.857 5.572q0.571 3.143 2.285 6t4.715 6.714 4.714 6.714q6.572 10.857 12.857 26.143t8.572 26.143q0.857 2.857 0.143 8.572t-0.143 8q0.857 3.143 4.857 8t4.857 6.572q6 10.286 12 26.286t7.143 25.714q0.285 2.571-0.715 9.143t0.143 8q1.143 3.714 6.285 8.714t6.285 6.429q5.428 7.428 12.143 24.143t7.857 27.572q0.285 2.286-0.857 7.286t-0.572 7.571q0.572 2.286 2.572 5.143t5.143 6.572 4.857 6q2.285 3.428 4.715 8.714t4.285 10 4.572 10.286 5.572 9.143 7.571 6.714 10.286 3.286 13.572-1.571l-0.286-0.857q10.857 2.572 14.572 2.572h217.428q21.143 0 32.572-16t5.143-37.143l-78.286-258.857q-10.286-34-20.428-43.857t-36.714-9.857h-248.286q-7.715 0-10.857-4.286-3.143-4.572-0.285-12.286 6.857-20 41.143-20h263.714q8.286 0 16 4.428t10 11.857l85.714 282q2 6.286 1.428 16.285 10.857-4.285 16.857-12.285zM164.286 338.286q-1.143-3.714 0.571-6.428t5.714-2.714h173.714q3.714 0 7.286 2.714t4.714 6.428l6 18.285q1.143 3.715-0.572 6.429t-5.714 2.714h-173.714q-3.714 0-7.286-2.714t-4.714-6.429zM140.571 265.143q-1.143-3.714 0.571-6.428t5.714-2.714h173.714q3.714 0 7.286 2.714t4.714 6.428l6 18.286q1.143 3.714-0.572 6.428t-5.714 2.714h-173.714q-3.714 0-7.286-2.714t-4.714-6.428z" horiz-adv-x="476" />
<glyph unicode="&#xe605;" d="M320 402.286h-237.714q-18.857 0-32.285-13.428t-13.428-32.286v-237.714q0-18.857 13.428-32.286t32.285-13.428h237.714q18.857 0 32.286 13.428t13.428 32.286v237.714q0 18.857-13.428 32.286t-32.286 13.428zM402.286 356.572v-237.714q0-34-24.143-58.143t-58.143-24.143h-237.714q-34 0-58.143 24.143t-24.143 58.143v237.714q0 34 24.143 58.143t58.143 24.143h237.714q34 0 58.143-24.143t24.143-58.143z" horiz-adv-x="403" />
<glyph unicode="&#xe606;" d="M109.715 73.143q0-22.857-16-38.857t-38.857-16-38.857 16-16 38.857 16 38.857 38.857 16 38.857-16 16-38.857zM109.715 219.429q0-22.857-16-38.857t-38.857-16-38.857 16-16 38.857 16 38.857 38.857 16 38.857-16 16-38.857zM512 100.572v-54.857q0-3.714-2.714-6.428t-6.428-2.714h-347.428q-3.714 0-6.428 2.714t-2.714 6.428v54.857q0 3.714 2.714 6.428t6.428 2.714h347.428q3.714 0 6.428-2.714t2.714-6.428zM109.715 365.714q0-22.857-16-38.857t-38.857-16-38.857 16-16 38.857 16 38.857 38.857 16 38.857-16 16-38.857zM512 246.857v-54.857q0-3.714-2.714-6.428t-6.428-2.714h-347.428q-3.714 0-6.428 2.714t-2.714 6.428v54.857q0 3.714 2.714 6.429t6.428 2.714h347.428q3.714 0 6.428-2.714t2.714-6.428zM512 393.143v-54.857q0-3.714-2.714-6.428t-6.428-2.714h-347.428q-3.714 0-6.428 2.714t-2.714 6.428v54.857q0 3.714 2.714 6.429t6.428 2.714h347.428q3.714 0 6.428-2.714t2.714-6.429z" />
<glyph unicode="&#xe607;" d="M416 411.429h-320c-52.8 0-96-43.2-96-96v-192c0-52.8 43.2-96 96-96h320c52.8 0 96 43.2 96 96v192c0 52.8-43.2 96-96 96zM192 91.429v256l160-128-160-128z" />
<glyph unicode="&#xe608;" d="M91.428 402.286q0-20.572-18.285-31.428v-361.714q0-3.714-2.715-6.428t-6.428-2.714h-18.285q-3.715 0-6.428 2.714t-2.715 6.428v361.714q-18.285 10.857-18.285 31.428 0 15.143 10.715 25.857t25.857 10.715 25.857-10.715 10.715-25.857zM512 384v-218q0-7.143-3.572-11t-11.286-7.857q-61.428-33.143-105.428-33.143-17.428 0-35.286 6.286t-31 13.714-33 13.714-40.714 6.286q-54.857 0-132.571-41.714-4.857-2.572-9.428-2.572-7.428 0-12.857 5.428t-5.428 12.857v212q0 9.143 8.857 15.714 6 4 22.572 12.286 67.428 34.285 120.285 34.285 30.571 0 57.143-8.285t62.572-25.143q10.857-5.428 25.143-5.428 15.428 0 33.572 6t31.428 13.428 25.143 13.428 15.572 6q7.428 0 12.857-5.428t5.428-12.857z" />
<glyph unicode="&#xe609;" d="M279.428 136.857q0-43.714-28.428-75.286t-73.857-39v-50q0-4-2.571-6.572t-6.572-2.571h-38.572q-3.715 0-6.428 2.714t-2.715 6.429v50q-18.857 2.572-36.428 8.857t-29 12.714-21.143 13.714-13.285 10.714-5 5.143q-4.857 6-0.572 11.714l29.428 38.572q2 2.857 6.572 3.428 4.285 0.572 6.857-2.572l0.572-0.572q32.285-28.286 69.428-35.714 10.572-2.286 21.143-2.286 23.143 0 40.714 12.286t17.572 34.857q0 8-4.286 15.143t-9.572 12-16.714 10.714-18.857 9.143-22.857 9.286q-11.143 4.572-17.572 7.143t-17.572 7.572-17.857 8.857-16.143 10.143-15.285 12.143-12.428 14-10.143 16.572-6 19-2.428 22.286q0 39.428 28 69.143t72.857 38.286v51.428q0 3.715 2.715 6.428t6.429 2.715h38.572q4 0 6.572-2.572t2.571-6.572v-50.285q16.285-1.715 31.571-6.572t24.857-9.572 18.143-10.714 11.143-8.286 4.286-4q4.857-5.143 1.428-10.857l-23.143-41.715q-2.286-4.286-6.571-4.571-4-0.857-7.714 2-0.857 0.857-4.143 3.428t-11.143 7.572-16.714 9.143-21.286 7.428-24.428 3.286q-27.143 0-44.285-12.286t-17.143-31.714q0-7.428 2.428-13.714t8.428-11.857 11.285-9.428 16-8.857 17.286-7.714 20-7.857q15.143-5.714 23.143-9t21.715-10 21.572-12.143 17.714-14.286 15.143-18.143 9-21.857 3.714-26.857z" horiz-adv-x="293" />
<glyph unicode="&#xe60a;" d="M292.572 73.143h182.857v36.572h-182.857v-36.572zM182.857 219.429h292.572v36.572h-292.572v-36.572zM365.714 365.714h109.714v36.572h-109.714v-36.572zM512 128v-73.143q0-7.428-5.428-12.857t-12.857-5.428h-475.428q-7.428 0-12.857 5.428t-5.428 12.857v73.143q0 7.428 5.428 12.857t12.857 5.428h475.428q7.428 0 12.857-5.428t5.428-12.857zM512 274.286v-73.143q0-7.428-5.428-12.857t-12.857-5.428h-475.428q-7.428 0-12.857 5.428t-5.428 12.857v73.143q0 7.429 5.428 12.857t12.857 5.428h475.428q7.428 0 12.857-5.428t5.428-12.857zM512 420.572v-73.143q0-7.428-5.428-12.857t-12.857-5.428h-475.428q-7.428 0-12.857 5.428t-5.428 12.857v73.143q0 7.428 5.428 12.857t12.857 5.429h475.428q7.428 0 12.857-5.429t5.428-12.857z" />
<glyph unicode="&#xe60b;" d="M146.286 82.286v54.857q0 4-2.571 6.572t-6.571 2.572h-91.428q-4 0-6.572-2.572t-2.572-6.572v-54.857q0-4 2.572-6.572t6.572-2.572h91.428q4 0 6.572 2.572t2.571 6.572zM146.286 192v54.857q0 4-2.571 6.572t-6.571 2.571h-91.428q-4 0-6.572-2.571t-2.572-6.572v-54.857q0-4 2.572-6.572t6.572-2.572h91.428q4 0 6.572 2.572t2.571 6.572zM292.572 82.286v54.857q0 4-2.572 6.572t-6.572 2.572h-91.428q-4 0-6.572-2.572t-2.571-6.572v-54.857q0-4 2.571-6.572t6.572-2.572h91.428q4 0 6.572 2.572t2.572 6.572zM146.286 301.714v54.857q0 4-2.571 6.572t-6.571 2.572h-91.428q-4 0-6.572-2.572t-2.572-6.572v-54.857q0-4 2.572-6.572t6.572-2.572h91.428q4 0 6.572 2.572t2.571 6.572zM292.572 192v54.857q0 4-2.572 6.572t-6.572 2.571h-91.428q-4 0-6.572-2.571t-2.571-6.572v-54.857q0-4 2.571-6.572t6.572-2.572h91.428q4 0 6.572 2.572t2.572 6.572zM438.857 82.286v54.857q0 4-2.572 6.572t-6.572 2.572h-91.428q-4 0-6.572-2.572t-2.572-6.572v-54.857q0-4 2.572-6.572t6.572-2.572h91.428q4 0 6.572 2.572t2.572 6.572zM292.572 301.714v54.857q0 4-2.572 6.572t-6.572 2.572h-91.428q-4 0-6.572-2.572t-2.571-6.572v-54.857q0-4 2.571-6.572t6.572-2.572h91.428q4 0 6.572 2.572t2.572 6.572zM438.857 192v54.857q0 4-2.572 6.572t-6.572 2.571h-91.428q-4 0-6.572-2.571t-2.572-6.572v-54.857q0-4 2.572-6.572t6.572-2.572h91.428q4 0 6.572 2.572t2.572 6.572zM438.857 301.714v54.857q0 4-2.572 6.572t-6.572 2.572h-91.428q-4 0-6.572-2.572t-2.572-6.572v-54.857q0-4 2.572-6.572t6.572-2.572h91.428q4 0 6.572 2.572t2.572 6.572zM475.428 393.143v-310.857q0-18.857-13.428-32.286t-32.286-13.428h-384q-18.857 0-32.285 13.428t-13.428 32.286v310.857q0 18.857 13.428 32.286t32.285 13.428h384q18.857 0 32.286-13.428t13.428-32.286z" horiz-adv-x="476" />
<glyph unicode="&#xe60c;" d="M109.715 137.143v-18.286q0-3.714-2.715-6.428t-6.428-2.714h-18.285q-3.715 0-6.428 2.714t-2.715 6.428v18.286q0 3.714 2.715 6.428t6.428 2.714h18.285q3.715 0 6.428-2.714t2.715-6.428zM109.715 210.286v-18.286q0-3.714-2.715-6.428t-6.428-2.714h-18.285q-3.715 0-6.428 2.714t-2.715 6.428v18.286q0 3.714 2.715 6.428t6.428 2.714h18.285q3.715 0 6.428-2.714t2.715-6.428zM109.715 283.429v-18.286q0-3.714-2.715-6.428t-6.428-2.714h-18.285q-3.715 0-6.428 2.714t-2.715 6.428v18.286q0 3.714 2.715 6.428t6.428 2.714h18.285q3.715 0 6.428-2.714t2.715-6.428zM438.857 137.143v-18.286q0-3.714-2.714-6.428t-6.428-2.714h-274.286q-3.714 0-6.428 2.714t-2.714 6.428v18.286q0 3.714 2.714 6.428t6.428 2.714h274.286q3.714 0 6.428-2.714t2.714-6.428zM438.857 210.286v-18.286q0-3.714-2.714-6.428t-6.428-2.714h-274.286q-3.714 0-6.428 2.714t-2.714 6.428v18.286q0 3.714 2.714 6.428t6.428 2.714h274.286q3.714 0 6.428-2.714t2.714-6.428zM438.857 283.429v-18.286q0-3.714-2.714-6.428t-6.428-2.714h-274.286q-3.714 0-6.428 2.714t-2.714 6.428v18.286q0 3.714 2.714 6.428t6.428 2.714h274.286q3.714 0 6.428-2.714t2.714-6.428zM475.428 82.286v237.714q0 3.714-2.714 6.428t-6.428 2.714h-420.572q-3.715 0-6.428-2.714t-2.715-6.428v-237.714q0-3.714 2.715-6.428t6.428-2.714h420.572q3.714 0 6.428 2.714t2.714 6.428zM512 393.143v-310.857q0-18.857-13.428-32.286t-32.286-13.428h-420.572q-18.857 0-32.285 13.428t-13.428 32.286v310.857q0 18.857 13.428 32.286t32.285 13.428h420.572q18.857 0 32.286-13.428t13.428-32.286z" />
<glyph unicode="&#xe60d;" d="M256 210.286v-18.286q0-4-2.571-6.572t-6.571-2.572h-64v-64q0-4-2.571-6.572t-6.571-2.572h-18.286q-4 0-6.572 2.572t-2.571 6.572v64h-64q-4 0-6.572 2.572t-2.572 6.572v18.286q0 4 2.572 6.572t6.572 2.571h64v64q0 4 2.571 6.572t6.572 2.571h18.286q4 0 6.572-2.571t2.571-6.572v-64h64q4 0 6.571-2.572t2.572-6.572zM292.572 100.572v201.143q0 11.429-8 19.429t-19.428 8h-201.143q-11.428 0-19.428-8t-8-19.428v-201.143q0-11.428 8-19.428t19.428-8h201.143q11.428 0 19.428 8t8 19.428zM329.143 301.714v-201.143q0-26.286-18.714-45.143t-45.286-18.857h-201.143q-26.572 0-45.285 18.857t-18.715 45.143v201.143q0 26.572 18.715 45.286t45.285 18.714h201.143q26.572 0 45.286-18.714t18.714-45.286z" horiz-adv-x="329" />
<glyph unicode="&#xe60e;" d="M365.714 18.286q0 7.428-5.428 12.857t-12.857 5.428-12.857-5.428-5.428-12.857 5.428-12.857 12.857-5.428 12.857 5.428 5.428 12.857zM402.286 236.572q0 54-47.714 54-7.428 0-16-1.428-4.572 8.572-15 13.572t-21 5-19.714-5.143q-14.286 15.143-34 15.143-7.143 0-15.857-2.857t-13.571-7.143v94.571q0 14.857-10.857 25.715t-25.715 10.857q-14.572 0-25.572-11.143t-11-25.429v-164.571q-5.714 0-13.857 4.286t-15.715 9.428-19.428 9.428-24.143 4.286q-19.143 0-27.857-12.714t-8.715-33q0-6.857 39.715-25.714 12.572-6.857 18.572-10.572 18.285-11.428 41.428-32 23.143-20.286 30.286-28.857 16.286-19.714 16.286-40v-9.143h182.857v9.143q0 20.572 9.143 47.714t18.286 55.286 9.143 51.286zM438.857 238q0-38-19.714-92-16.857-46.857-16.857-63.714v-82.286q0-15.143-10.714-25.857t-25.857-10.715h-182.857q-15.143 0-25.857 10.715t-10.714 25.857v82.286q0 2.857-1.286 6.143t-4 6.714-5.143 6.428-6.429 6.857-6.143 5.857-6.143 5.428-4.857 4q-21.143 18.572-36.857 28.572-6 3.714-17.715 9.428t-20.572 10.572-18 11.572-14.143 15.714-5 19.857q0 35.715 19.143 59t54 23.286q19.428 0 36.572-6.286v106.857q0 29.715 21.715 51.428t51.143 21.715q30 0 51.715-21.572t21.714-51.572v-48.285q17.714-1.143 34-10.572 6 0.857 12.286 0.857 28.857 0 50.857-17.143 39.714 0.286 62.714-24.286t23-64.857z" horiz-adv-x="439" />
<glyph unicode="&#xe60f;" d="M109.715 18.286v36.572q0 7.428-5.428 12.857t-12.857 5.428h-36.572q-7.428 0-12.857-5.428t-5.428-12.857v-36.572q0-7.428 5.428-12.857t12.857-5.428h36.572q7.428 0 12.857 5.428t5.428 12.857zM109.715 128v36.572q0 7.428-5.428 12.857t-12.857 5.428h-36.572q-7.428 0-12.857-5.428t-5.428-12.857v-36.572q0-7.428 5.428-12.857t12.857-5.428h36.572q7.428 0 12.857 5.428t5.428 12.857zM109.715 237.714v36.572q0 7.428-5.428 12.857t-12.857 5.429h-36.572q-7.428 0-12.857-5.428t-5.428-12.857v-36.571q0-7.428 5.428-12.857t12.857-5.428h36.572q7.428 0 12.857 5.428t5.428 12.857zM402.286 18.286v146.286q0 7.428-5.428 12.857t-12.857 5.428h-219.429q-7.429 0-12.857-5.428t-5.428-12.857v-146.286q0-7.428 5.428-12.857t12.857-5.428h219.429q7.428 0 12.857 5.428t5.428 12.857zM109.715 347.429v36.572q0 7.428-5.428 12.857t-12.857 5.428h-36.572q-7.428 0-12.857-5.428t-5.428-12.857v-36.572q0-7.428 5.428-12.857t12.857-5.428h36.572q7.428 0 12.857 5.428t5.428 12.857zM512 18.286v36.572q0 7.428-5.428 12.857t-12.857 5.428h-36.572q-7.428 0-12.857-5.428t-5.428-12.857v-36.572q0-7.428 5.428-12.857t12.857-5.428h36.572q7.428 0 12.857 5.428t5.428 12.857zM402.286 237.714v146.286q0 7.428-5.428 12.857t-12.857 5.428h-219.429q-7.429 0-12.857-5.428t-5.428-12.857v-146.286q0-7.428 5.428-12.857t12.857-5.428h219.429q7.428 0 12.857 5.428t5.428 12.857zM512 128v36.572q0 7.428-5.428 12.857t-12.857 5.428h-36.572q-7.428 0-12.857-5.428t-5.428-12.857v-36.572q0-7.428 5.428-12.857t12.857-5.428h36.572q7.428 0 12.857 5.428t5.428 12.857zM512 237.714v36.572q0 7.428-5.428 12.857t-12.857 5.429h-36.572q-7.428 0-12.857-5.428t-5.428-12.857v-36.571q0-7.428 5.428-12.857t12.857-5.428h36.572q7.428 0 12.857 5.428t5.428 12.857zM512 347.429v36.572q0 7.428-5.428 12.857t-12.857 5.428h-36.572q-7.428 0-12.857-5.428t-5.428-12.857v-36.572q0-7.428 5.428-12.857t12.857-5.428h36.572q7.428 0 12.857 5.428t5.428 12.857zM548.572 393.143v-384q0-18.857-13.428-32.286t-32.286-13.428h-457.143q-18.857 0-32.285 13.428t-13.428 32.286v384q0 18.857 13.428 32.286t32.285 13.428h457.143q18.857 0 32.286-13.428t13.428-32.286z" horiz-adv-x="549" />
<glyph unicode="&#xe610;" d="M324.857 188.572l87.428 84.857-120.572 17.715-54 109.143-54-109.143-120.572-17.714 87.428-84.857-20.857-120.286 108 56.857 107.714-56.857zM475.428 290.572q0-6.286-7.428-13.714l-103.714-101.143 24.572-142.857q0.286-2 0.286-5.714 0-14.286-11.714-14.286-5.428 0-11.428 3.428l-128.286 67.428-128.286-67.428q-6.285-3.428-11.428-3.428-6 0-9 4.143t-3 10.143q0 1.714 0.572 5.714l24.572 142.857-104 101.143q-7.143 7.714-7.143 13.714 0 10.572 16 13.143l143.428 20.857 64.286 130q5.428 11.714 14 11.714t14-11.714l64.286-130 143.429-20.857q16-2.572 16-13.143z" horiz-adv-x="476" />
<glyph unicode="&#xe611;" d="M182.857 36.572q0-15.143-10.714-25.857t-25.857-10.714-25.857 10.714-10.715 25.857 10.715 25.857 25.857 10.714 25.857-10.714 10.714-25.857zM438.857 36.572q0-15.143-10.714-25.857t-25.857-10.714-25.857 10.714-10.714 25.857 10.714 25.857 25.857 10.714 25.857-10.714 10.714-25.857zM475.428 347.429v-146.286q0-6.857-4.572-12.143t-11.714-6.143l-298.286-34.857q0.286-2 1.286-6.143t1.714-7.572 0.714-6.286q0-4.572-6.857-18.286h262.857q7.428 0 12.857-5.428t5.428-12.857-5.428-12.857-12.857-5.428h-292.572q-7.428 0-12.857 5.428t-5.428 12.857q0 4 3.143 11.286t8.428 17 5.857 10.857l-50.572 235.143h-58.285q-7.428 0-12.857 5.429t-5.428 12.857 5.428 12.857 12.857 5.429h73.143q4.572 0 8.143-1.857t5.715-4.428 3.715-7 2.143-7.572 1.572-8.428 1.285-7.286h343.143q7.428 0 12.857-5.428t5.428-12.857z" horiz-adv-x="476" />
<glyph unicode="&#xe612;" d="M512-5.851c0 0-0.998 96.947-6.938 106.983-8.832 14.976-29.337 25.241-67.43 41.165-37.965 15.872-50.125 29.286-50.125 57.933 0 17.229 11.597 11.597 16.691 43.111 2.099 13.082 12.339 0.231 14.31 30.054 0 11.904-5.581 14.874-5.581 14.874s2.816 17.613 3.942 31.155c1.382 16.896-8.525 60.493-61.235 60.493s-62.567-43.623-61.209-60.493c1.101-13.542 3.917-31.155 3.917-31.155s-5.581-2.97-5.581-14.874c1.971-29.849 12.211-16.998 14.336-30.054 5.069-31.514 16.666-25.882 16.666-43.111 0-19.481-5.632-31.923-21.171-42.855 82.944-41.523 94.080-49.997 94.080-87.117v-76.109h115.328zM261.735 127.909c-50.662 21.145-66.816 39.014-66.816 77.235 0 22.938 15.463 15.462 22.246 57.498 2.791 17.433 16.487 0.281 19.072 40.064 0 15.872-7.45 19.815-7.45 19.815s3.789 23.475 5.274 41.549c1.843 22.477-11.367 80.64-81.638 80.64s-83.456-58.137-81.613-80.64c1.485-18.074 5.248-41.549 5.248-41.549s-7.424-3.942-7.424-19.815c2.637-39.808 16.282-22.656 19.097-40.064 6.784-42.035 22.246-34.535 22.246-57.498 0-38.221-16.205-56.089-66.816-77.235-15.437-6.451-43.161-16.461-43.161-40.474v-93.286h355.687c0 0 0 55.168 0 69.913 0 21.939-43.187 42.599-93.952 63.846z" />
<glyph unicode="&#xe613;" d="M409.6 449.829h-307.2c-28.16 0-51.2-23.040-51.2-51.2v-358.4c0-28.16 23.040-51.2 51.2-51.2h307.2c28.185 0 51.2 23.040 51.2 51.2v358.4c0 28.16-23.014 51.2-51.2 51.2zM409.6 40.229h-307.2v358.4h307.2v-358.4zM281.6 168.229h-128v-25.6h128v25.6zM358.4 270.629h-102.4v-25.6h102.4v25.6zM256 296.229h102.4v51.2h-102.4v-51.2zM230.4 347.429h-76.8v-102.4h76.8v102.4zM204.8 219.429h-51.2v-25.6h51.2v25.6zM230.4 193.829h128v25.6h-128v-25.6zM358.4 117.029h-204.8v-25.6h204.8v25.6zM307.2 142.629h51.2v25.6h-51.2v-25.6z" />
<glyph unicode="&#xe614;" d="M256 454.949c-130.073 0-235.52-105.472-235.52-235.52 0-130.073 105.447-235.52 235.52-235.52s235.52 105.447 235.52 235.52c0 130.074-105.447 235.52-235.52 235.52zM256 35.109c-101.811 0-184.32 82.534-184.32 184.32s82.509 184.32 184.32 184.32 184.32-82.534 184.32-184.32-82.509-184.32-184.32-184.32zM273.92 352.549h-35.84v-140.544l87.168-87.168 25.344 25.344-76.672 76.672z" />
<glyph unicode="&#xe615;" d="M460.8 424.229h-409.6c-28.16 0-51.2-23.040-51.2-51.2v-307.2c0-28.185 23.040-51.2 51.2-51.2h409.6c28.16 0 51.2 23.014 51.2 51.2v307.2c0 28.16-23.040 51.2-51.2 51.2zM117.76 376.357c10.624 0 19.2-8.346 19.2-18.663 0-10.342-8.576-18.688-19.2-18.688s-19.2 8.346-19.2 18.663c0 10.342 8.602 18.688 19.2 18.688zM47.36 357.669c0 10.317 8.576 18.662 19.2 18.662s19.2-8.32 19.2-18.662c0-10.343-8.576-18.688-19.2-18.688s-19.2 8.371-19.2 18.688zM461.312 65.829h-410.624v235.52h410.624v-235.52zM461.312 342.309h-307.712v30.72h307.712v-30.72z" />
<glyph unicode="&#xe616;" d="M67.686 312.69c44.723 38.4 80.077 68.787 175.923 14.592 46.054-26.035 83.2-35.815 114.125-35.815 54.144 0 89.216 30.131 119.552 56.166 10.829 9.293 12.237 25.805 3.123 36.839s-25.241 12.467-36.070 3.174c-44.723-38.425-80.051-68.787-175.949-14.592-126.669 71.552-186.010 20.582-233.677-20.377-10.803-9.293-12.211-25.779-3.123-36.813s25.267-12.493 36.096-3.175zM444.313 256.907c-44.723-38.4-80.051-68.787-175.949-14.592-126.643 71.552-185.984 20.583-233.651-20.352-10.829-9.293-12.237-25.805-3.123-36.839s25.241-12.467 36.071-3.175c44.723 38.425 80.077 68.787 175.923 14.618 46.055-26.035 83.2-35.84 114.125-35.84 54.144 0 89.216 30.131 119.552 56.192 10.829 9.293 12.237 25.779 3.123 36.813-9.088 11.059-25.241 12.467-36.070 3.174zM444.313 126.168c-44.723-38.4-80.051-68.787-175.949-14.592-126.643 71.552-186.010 20.608-233.651-20.352-10.829-9.293-12.237-25.805-3.123-36.839s25.241-12.467 36.071-3.175c44.749 38.425 80.077 68.762 175.949 14.618 46.055-26.035 83.2-35.84 114.125-35.84 54.144 0 89.216 30.131 119.552 56.192 10.829 9.267 12.237 25.779 3.123 36.813s-25.267 12.493-36.096 3.175z" />
<glyph unicode="&#xe617;" d="M503.885 346.814l-119.654 74.931c-5.299 3.328-11.93 3.328-17.229 0l-111.002-69.53-111.001 69.504c-5.299 3.328-11.929 3.328-17.229 0l-119.654-74.906c-5.018-3.149-8.115-8.857-8.115-14.976v-299.699c0-6.298 3.225-12.135 8.499-15.232s11.699-3.021 16.87 0.231l111.001 69.529 111.001-69.529c5.299-3.328 11.93-3.328 17.255 0l111.002 69.529 111.001-69.529c2.637-1.664 5.632-2.509 8.627-2.509 2.841 0 5.683 0.768 8.243 2.279 5.248 3.098 8.499 8.935 8.499 15.232v299.699c0 6.118-3.098 11.827-8.115 14.976zM119.629 116.952l-86.144-53.939v258.918l86.144 53.939v-258.918zM239.257 63.013l-86.144 53.939v258.918l86.144-53.939v-258.918zM358.887 116.952l-86.118-53.939v258.918l86.118 53.939v-258.918zM478.49 63.013l-86.118 53.939v258.918l86.118-53.939v-258.918z" />
<glyph unicode="&#xe618;" d="M379.392 105.56c-63.104 22.989-83.277 42.394-83.277 83.942 0 24.935 19.277 16.793 27.725 62.464 3.507 18.944 20.531 0.307 23.808 43.546 0 17.229-9.293 21.529-9.293 21.529s4.736 25.523 6.579 45.133c2.253 24.474-14.131 87.655-101.734 87.655-87.578 0-104.013-63.181-101.709-87.655 1.843-19.609 6.579-45.133 6.579-45.133s-9.319-4.275-9.319-21.529c3.251-43.238 20.275-24.601 23.782-43.546 8.474-45.671 27.75-37.529 27.75-62.464 0-41.549-20.173-60.954-83.277-83.942-63.334-23.040-104.448-46.567-104.448-62.618 0-16.026 0-53.888 0-53.888h481.28c0 0 0 37.863 0 53.888s-41.139 39.552-104.448 62.618z" />
<glyph unicode="&#xe619;" d="M108.903-30.478c7.834 25.625 19.712 61.721 35.609 113.945 69.274 11.187 97.945-8.935 141.952 71.27-35.712-11.161-78.771 20.711-76.442 34.509 2.304 13.824 100.173-9.959 164.224 82.893-80.743-18.15-106.599 21.837-96.179 27.879 24.038 13.952 95.411 5.786 133.453 43.597 19.61 19.456 28.774 66.791 20.813 83.687-9.6 20.377-68.019 50.791-100.224 47.949-32.205-2.867-82.714-125.159-97.69-124.186s-17.971 54.759 8.166 104.781c-27.571-12.441-78.080-51.174-93.927-84.275-29.517-61.594 2.765-202.829-7.577-207.872-10.368-5.017-45.209 64.845-55.603 96.512-14.208-48.538-14.541-97.178 26.983-161.792-15.667-42.394-24.218-91.187-25.523-115.993-0.615-19.866 18.509-24.115 21.965-12.902z" />
<glyph unicode="&#xe61a;" d="M389.094 245.029h-266.214c-14.157 0-15.36-11.469-15.36-25.6s1.203-25.6 15.36-25.6h266.214c14.157 0 15.385 11.469 15.385 25.6s-1.229 25.6-15.385 25.6z" />
<glyph unicode="&#xe61b;" d="M201.19 99.262l-20.736-20.582c-17.971-17.792-47.181-17.817-65.126 0-8.627 8.576-13.363 19.917-13.363 32.026s4.761 23.475 13.363 32.051l76.288 75.699c15.795 15.693 45.542 38.758 67.226 17.255 9.959-9.882 26.035-9.805 35.891 0.128 9.882 9.933 9.83 26.010-0.128 35.891-36.839 36.557-91.315 29.798-138.752-17.255l-76.288-75.699c-18.279-18.176-28.365-42.343-28.365-68.070 0-25.702 10.087-49.869 28.391-68.045 18.841-18.714 43.571-28.032 68.301-28.032s49.511 9.318 68.352 28.032l20.736 20.608c9.958 9.882 10.010 25.959 0.128 35.865-9.881 9.933-25.958 9.984-35.917 0.128zM432.409 393.278c-39.577 39.271-94.899 41.395-131.558 5.043l-25.831-25.625c-9.959-9.882-10.035-25.933-0.154-35.891 9.907-9.958 25.959-10.010 35.891-0.128l25.83 25.626c18.969 18.841 43.827 11.034 60.058-5.043 8.627-8.551 13.363-19.943 13.363-32.026 0-12.109-4.762-23.475-13.363-32.026l-81.408-80.742c-37.197-36.915-54.682-19.61-62.131-12.211-9.958 9.882-26.010 9.805-35.865-0.128-9.881-9.959-9.831-26.035 0.128-35.891 17.075-16.947 36.608-25.344 57.037-25.344 25.037 0 51.481 12.595 76.621 37.555l81.382 80.743c18.304 18.15 28.39 42.317 28.39 68.019s-10.087 49.894-28.39 68.070z" />
<glyph unicode="&#xe61c;" d="M17.203 130.955l8.397 35.84-8.397 37.043c-0.23 1.101-2.329 1.945-4.915 1.945-2.611 0-4.71-0.845-4.915-1.945l-7.373-37.043 7.399-35.84c0.205-1.127 2.304-1.945 4.915-1.945 2.56 0 4.659 0.819 4.889 1.945zM69.683 111.064l7.117 55.399-7.117 85.683c-0.205 2.202-2.867 3.917-6.093 3.917-3.251 0-5.913-1.69-6.067-3.891l-6.323-85.709 6.323-55.399c0.154-2.176 2.816-3.865 6.067-3.865 3.225-0.026 5.888 1.69 6.093 3.865zM122.061 111.96l5.939 54.477-5.939 114.099c-0.153 2.662-3.328 4.787-7.194 4.787-3.891 0-7.066-2.099-7.194-4.787l-5.273-114.099 5.273-54.502c0.128-2.663 3.302-4.762 7.194-4.762 3.865 0 7.040 2.099 7.194 4.787zM174.336 112.779l4.864 53.632-4.864 114.944c-0.128 3.174-3.712 5.683-8.192 5.683-4.506 0-8.089-2.509-8.218-5.683l-4.327-114.944 4.352-53.632c0.077-3.149 3.686-5.658 8.192-5.658 4.48 0 8.064 2.457 8.192 5.658zM226.56 113.445l3.84 52.941-3.84 131.789c-0.077 3.635-4.198 6.579-9.165 6.579s-9.063-2.944-9.139-6.579l-3.456-131.738c0-0.077 3.456-52.966 3.456-52.966 0.077-3.584 4.173-6.528 9.139-6.528 4.966-0.026 9.088 2.893 9.165 6.502zM263.117 106.891c0.154 0 181.734-0.103 182.912-0.103 36.454 0 65.971 28.57 65.971 63.821s-29.517 63.821-65.971 63.821c-9.063 0-17.664-1.767-25.523-4.966-5.248 57.498-55.142 102.605-115.968 102.605-14.873 0-29.389-2.816-42.189-7.629-4.966-1.869-6.323-3.763-6.349-7.475v-202.522c0.051-3.917 3.175-7.168 7.117-7.552z" />
<glyph unicode="&#xe61d;" d="M320-36.571h-224q-13.5 0-22.75 9.25t-9.25 22.75v448q0 13 9.25 22.5t22.75 9.5h224q53 0 90.5-37.5t37.5-90.5v-256q0-53-37.5-90.5t-90.5-37.5zM384 347.429q0 26.5-18.75 45.25t-45.25 18.75h-176q-6.5 0-11.25-4.75t-4.75-11.25v-352q0-6.5 4.75-11.25t11.25-4.75h176q26.5 0 45.25 18.75t18.75 45.25v256z" />
<glyph unicode="&#xe61e;" d="M192 187.429h-96v-64l-96 96 96 96v-64h96zM320 251.429h96v64l96-96-96-96v64h-96z" />
<glyph unicode="&#xe61f;" d="M448-36.571h-384q-26.5 0-45.25 18.75t-18.75 45.25v384q0 26.5 18.75 45.25t45.25 18.75h384q26.5 0 45.25-18.75t18.75-45.25v-384q0-26.5-18.75-45.25t-45.25-18.75zM352 331.429q0 6.5-4.75 11.25t-11.25 4.75-11.25-4.75-4.75-11.25v-104q0-3.5-2.5-5.75t-5.5-2.25h-112q-3.5 0-6 2.25t-2.5 5.75v104q0 6.5-4.5 11.25t-11.25 4.75-11.5-4.75-4.75-11.25v-224q0-6.5 4.75-11.25t11.5-4.75 11.25 4.75 4.5 11.25v72q0 3.5 2.5 5.75t6 2.25h112q3 0 5.5-2.25t2.5-5.75v-72q0-6.5 4.75-11.25t11.25-4.75 11.25 4.75 4.75 11.25v224z" />
<glyph unicode="&#xe620;" d="M0 411.429v-416h512v416h-512zM480 27.429h-448v352h448v-352zM352 299.429c0 26.51 21.49 48 48 48s48-21.49 48-48c0-26.51-21.49-48-48-48s-48 21.49-48 48zM448 59.429h-384l96 256 128-160 64 48z" />
<glyph unicode="&#xe621;" d="M64 347.429v-320h448v320h-448zM480 80.762l-64 106.667-72.533-60.444-55.467 92.444-192-160v256h384v-234.667zM128 235.429c0 26.51 21.49 48 48 48s48-21.49 48-48c0-26.51-21.49-48-48-48s-48 21.49-48 48zM448 411.429h-448v-320h32v288h416z" />
<glyph unicode="&#xe622;" d="M0-36.571v512h512v-512h-512zM480 443.429h-448v-448h448v448zM448 123.429h-384v288h384v-288z" />
<glyph unicode="&#xe623;" d="M512 315.429l-256 128-256-128 256-128 256 128zM256 400.944l171.029-85.515-171.029-85.515-171.029 85.515 171.029 85.515zM460.722 245.068l51.278-25.639-256-128-256 128 51.278 25.639 204.722-102.361zM460.722 149.068l51.278-25.639-256-128-256 128 51.278 25.639 204.722-102.361z" />
<glyph unicode="&#xe624;" d="M496 27.429h-352q-6.5 0-11.25 4.75t-4.75 11.25v16h352v224h16q6.5 0 11.25-4.75t4.75-11.25v-224q0-6.5-4.75-11.25t-11.25-4.75zM432 91.429h-352q-6.5 0-11.25 4.75t-4.75 11.25v16h352v224h16q6.5 0 11.25-4.75t4.75-11.25v-224q0-6.5-4.75-11.25t-11.25-4.75zM368 155.429h-352q-6.5 0-11.25 4.75t-4.75 11.25v224q0 6.5 4.75 11.25t11.25 4.75h352q6.5 0 11.25-4.75t4.75-11.25v-224q0-6.5-4.75-11.25t-11.25-4.75zM352 379.429h-320v-192h320v192z" />
<glyph unicode="&#xe625;" d="M496 59.429q6.5 0 11.25-4.75t4.75-11.25v-64q0-6.5-4.75-11.25t-11.25-4.75h-64q-6.5 0-11.25 4.75t-4.75 11.25v16h-320v-16q0-6.5-4.75-11.25t-11.25-4.75h-64q-6.5 0-11.25 4.75t-4.75 11.25v64q0 6.5 4.75 11.25t11.25 4.75h16v320h-16q-6.5 0-11.25 4.75t-4.75 11.25v64q0 6.5 4.75 11.25t11.25 4.75h64q6.5 0 11.25-4.75t4.75-11.25v-16h320v16q0 6.5 4.75 11.25t11.25 4.75h64q6.5 0 11.25-4.75t4.75-11.25v-64q0-6.5-4.75-11.25t-11.25-4.75h-16v-320h16zM32 3.429q0-3.5 2.25-5.75t5.75-2.25h16q3.5 0 5.75 2.25t2.25 5.75v16q0 3.5-2.25 5.75t-5.75 2.25h-16q-3.5 0-5.75-2.25t-2.25-5.75v-16zM64 435.429q0 3.5-2.25 5.75t-5.75 2.25h-16q-3.5 0-5.75-2.25t-2.25-5.75v-16q0-3.5 2.25-5.75t5.75-2.25h16q3.5 0 5.75 2.25t2.25 5.75v16zM416 395.429v16h-320v-16q0-6.5-4.75-11.25t-11.25-4.75h-16v-320h16q6.5 0 11.25-4.75t4.75-11.25v-16h320v16q0 6.5 4.75 11.25t11.25 4.75h16v320h-16q-6.5 0-11.25 4.75t-4.75 11.25zM480 435.429q0 3.5-2.25 5.75t-5.75 2.25h-16q-3.5 0-5.75-2.25t-2.25-5.75v-16q0-3.5 2.25-5.75t5.75-2.25h16q3.5 0 5.75 2.25t2.25 5.75v16zM472 27.429h-16q-3.5 0-5.75-2.25t-2.25-5.75v-16q0-3.5 2.25-5.75t5.75-2.25h16q3.5 0 5.75 2.25t2.25 5.75v16q0 3.5-2.25 5.75t-5.75 2.25zM238.5 167.929l74.5 75q9 9 23.25 9t23.25-9l24.5-24.5v-127h-70zM176 251.429q-20 0-34 14t-14 34 14 34 34 14 34-14 14-34-14-34-34-14zM183.5 178.429l86.5-87h-142v78l9 9q9 9.5 23.25 9.5t23.25-9.5z" />
<glyph unicode="&#xe626;" d="M240 411.429c-25.333 0-49.791-3.975-72.693-11.814-21.462-7.347-40.557-17.718-56.751-30.823-30.022-24.295-46.556-55.401-46.556-87.587 0-17.995 5.033-35.474 14.96-51.949 10.343-17.17 25.949-32.897 45.13-45.479 15.22-9.984 25.468-25.976 28.181-43.975 0.451-2.995 0.815-6.003 1.090-9.016 1.361 1.26 2.712 2.557 4.057 3.897 12.069 12.020 28.344 18.656 45.161 18.656 2.674 0 5.359-0.168 8.047-0.509 9.68-1.226 19.562-1.848 29.374-1.848 25.333 0 49.79 3.974 72.692 11.814 21.463 7.346 40.558 17.717 56.752 30.822 30.023 24.295 46.556 55.401 46.556 87.587s-16.533 63.291-46.556 87.587c-16.194 13.106-35.289 23.476-56.752 30.823-22.902 7.839-47.359 11.814-72.692 11.814zM240 475.429v0c132.548 0 240-86.957 240-194.224s-107.452-194.224-240-194.224c-12.729 0-25.223 0.81-37.417 2.355-51.553-51.347-111.086-60.554-170.583-61.907v12.567c32.126 15.677 58 44.233 58 76.867 0 4.553-0.356 9.024-1.015 13.397-54.279 35.607-88.985 89.994-88.985 150.945 0 107.267 107.452 194.224 240 194.224zM498 40.086c0-27.971 18.157-52.449 46-65.886v-10.771c-51.563 1.159-98.893 9.051-143.571 53.063-10.57-1.325-21.397-2.020-32.429-2.020-47.735 0-91.704 12.879-126.807 34.52 72.337 0.253 140.63 23.427 192.417 65.336 26.104 21.126 46.697 45.913 61.207 73.674 15.383 29.433 23.183 60.791 23.183 93.203 0 5.224-0.225 10.418-0.629 15.584 36.285-29.967 58.629-70.811 58.629-115.838 0-52.244-30.079-98.861-77.12-129.382-0.571-3.748-0.88-7.58-0.88-11.483z" horiz-adv-x="576" />
<glyph unicode="&#xe627;" d="M480.25 315.429q-13.25 0-22.75 9.5t-9.5 22.5q0 26.5-18.75 45.25t-45.25 18.75h-32q-13 0-22.5-9.25t-9.5-22.75v-320q0-13 9.5-22.5t22.75-9.5 22.5-9.25 9.25-22.5-9.25-22.75-22.75-9.5h-192q-13 0-22.5 9.25t-9.5 22.75 9.5 22.75 22.75 9.25 22.5 9.5 9.25 22.5v320q0 13.5-9.25 22.75t-22.75 9.25h-32q-26.5 0-45.25-18.75t-18.75-45.25q0-13-9.25-22.5t-22.5-9.5-22.75 9.5-9.5 22.5v96q0 13 9.5 22.5t22.5 9.5h448q13 0 22.5-9.5t9.5-22.5v-96q0-13.5-9.25-22.75t-22.5-9.25z" />
<glyph unicode="&#xe628;" d="M416.25-36.571q-13.25 0-22.5 9.25t-9.25 22.75v176q0 6.5-4.75 11.25t-11.25 4.75h-224.5q-6.5 0-11.25-4.75t-4.75-11.25v-176q0-13.5-9.25-22.75t-22.75-9.25-22.75 9.25-9.25 22.75v448q0 13 9.25 22.5t22.75 9.5 22.75-9.5 9.25-22.5v-176q0-6.5 4.75-11.25t11.25-4.75h224.5q6.5 0 11.25 4.75t4.75 11.25v176q0 13 9.25 22.5t22.5 9.5 22.75-9.25 9.5-22.75v-448q0-13.5-9.5-22.75t-22.75-9.25z" />
<glyph unicode="&#xe629;" d="M448-36.571h-384q-26.5 0-45.25 18.75t-18.75 45.25v384q0 26.5 18.75 45.25t45.25 18.75h128q13 0 22.5-9.5t9.5-22.75-9.5-22.5-22.5-9.25h-96q-13 0-22.5-9.5t-9.5-22.5v-320q0-13.5 9.25-22.75t22.75-9.25h320q13 0 22.5 9.25t9.5 22.75v96q0 13 9.25 22.5t22.5 9.5 22.75-9.5 9.5-22.5v-128q0-26.5-18.75-45.25t-45.25-18.75zM479.75 219.429q-13.25 0-22.5 9.25t-9.25 22.75v119l-206.5-206.5q-8.5-8.5-20.5-8.5t-20.5 8.5-8.5 20.5 8.5 20.5l206.5 206.5h-119q-13.5 0-22.75 9.25t-9.25 22.5 9.25 22.75 22.75 9.5h192q13 0 22.5-9.5t9.5-22.5v-192q0-13.5-9.5-22.75t-22.75-9.25z" />
<glyph unicode="&#xe62a;" d="M0 91.429l256.016-64 255.984 64v-64l-255.984-64-256.016 64zM0 219.429l256.016-64 255.984 64v-64l-255.984-64-256.016 64zM0 347.429l256.016-64 255.984 64v-64l-255.984-64-256.016 64zM0 475.429l256.016-64 255.984 64v-64l-255.984-64-256.016 64z" horiz-adv-x="511" />
<glyph unicode="&#xe62b;" d="M384 347.429h-128c0 23.552-19.114 42.666-42.666 42.666h-85.334c-35.285 0-64-28.714-64-64v-213.334c0-35.286 28.715-64 64-64h256c35.286 0 64 28.714 64 64v170.666c0 35.286-28.714 64-64 64zM128 347.429h85.334c0-23.552 19.114-42.666 42.666-42.666h128c11.776 0 21.334-9.558 21.334-21.334h-298.666v42.666c0 11.776 9.558 21.334 21.334 21.334zM384 91.429h-256c-11.776 0-21.334 9.558-21.334 21.334v149.333h298.666v-149.333c0-11.776-9.558-21.334-21.334-21.334z" />
<glyph unicode="&#xe62c;" d="M426.655 475.429h-341.31c-46.939 0-85.345-38.408-85.345-85.346v-341.31c0-46.969 38.406-85.344 85.345-85.344h341.31c46.939 0 85.345 38.375 85.345 85.345v341.309c0 46.938-38.406 85.346-85.345 85.346zM406.434 256.366c-16.979-95.648-111.854-176.648-140.39-195.155-28.544-18.503-54.577 7.411-64.019 26.997-10.808 22.354-43.205 143.47-51.684 153.51-8.482 10.019-33.938-10.040-33.938-10.040l-12.346 16.188c0 0 51.691 61.724 91.020 69.439 41.702 8.183 41.64-64.033 51.67-104.121 9.7-38.782 16.22-60.976 24.688-60.976 8.485 0 24.691 21.631 42.426 54.785 17.768 33.188-0.769 62.505-35.486 41.646 13.893 83.326 145.031 103.36 128.059 7.727z" />
<glyph unicode="&#xe62d;" d="M458.336 323.069l-228.348 152.264-228.32-152.3v-205.716l228.344-152.252 228.324 152.276v205.728zM31.128 247.713v59.556l198.872 132.648 198.88-132.616v-79.22l-198.888-132.632-115.832 77.248 44.64 29.788 71.212-47.476 168.928 112.684-168.968 112.656-198.844-132.636zM185.34 220.197l44.64 29.776 44.656-29.78-44.636-29.768-44.66 29.772zM230.012 0.465l-198.884 132.616v79.224l198.872 132.636 115.848-77.248-44.66-29.792-71.224 47.48-168.9-112.708 168.948-112.644 198.868 132.64v-59.568l-198.868-132.636z" horiz-adv-x="460" />
<glyph unicode="&#xe62e;" d="M192 315.429h-64v32c0 17.632 14.368 32 32 32h192c17.632 0 32-14.368 32-32v-32h64v32c0 52.944-43.056 96-96 96h-192c-52.944 0-96-43.056-96-96v-32h-64l96-128 96 128zM416 251.429l-96-128h64v-32c0-17.632-14.368-32-32-32h-192c-17.632 0-32 14.368-32 32v32h-64v-32c0-52.944 43.056-96 96-96h192c52.944 0 96 43.056 96 96v32h64l-96 128z" />
<glyph unicode="&#xe62f;" d="M463.984 169.909l-18.176-123.664-36.784 35.68c-29.136-24.624-83.168-58.128-161.664-58.128-78.96 0-133.568 32.688-162.624 56.112l-33.568-32.56-19.168 122.544 126.288-18.592-34.8-33.776c24.416-18.128 62.72-39.984 100.864-39.984l-0.112 201.744c-27.856 9.696-47.904 35.312-47.904 65.68 0 38.688 32.304 70.048 72.16 70.048 39.84 0 72.16-31.36 72.16-70.048 0-30.832-20.672-56.72-49.184-66.064 0.176-39.36 0.816-202.112-0.064-202.112 36.48 0 74.144 23.744 98.672 42.944l-32.512 31.568 126.416 18.608zM285.696 346.101c0 19.936-16.656 36.112-37.2 36.112s-37.216-16.176-37.216-36.112c0-19.952 16.672-36.128 37.216-36.128s37.2 16.176 37.2 36.128z" />
<glyph unicode="&#xe630;" d="M267.024 192.949l84.976-197.52-64-32-74.336 202.848-117.664-106.848v416l320-256-148.976-26.48z" />
<glyph unicode="&#xe631;" d="M76.8 275.749c-31.104 0-56.32-25.216-56.32-56.32s25.216-56.32 56.32-56.32 56.32 25.216 56.32 56.32c0 31.104-25.216 56.32-56.32 56.32zM256 275.749c-31.104 0-56.32-25.216-56.32-56.32s25.216-56.32 56.32-56.32 56.294 25.216 56.294 56.32c0 31.104-25.19 56.32-56.294 56.32zM435.2 275.749c-31.104 0-56.32-25.216-56.32-56.32s25.216-56.32 56.32-56.32 56.32 25.216 56.32 56.32c0 31.104-25.216 56.32-56.32 56.32z" />
<glyph unicode="&#xe632;" d="M469.034 287.247l-60.48 188.011-195.328-60.373-170.582-315.243 251.69-136.042 170.154 314.474c0.128 0.214 0.256 0.448 0.363 0.64l4.522 8.363-0.341 0.171zM378.24 297.615c-15.402-28.544-51.050-39.168-79.616-23.744-28.565 15.466-39.168 51.094-23.723 79.594 15.424 28.565 51.115 39.168 79.637 23.744 28.544-15.424 39.168-51.072 23.702-79.594z" />
<glyph unicode="&#xe633;" d="M451.716 375.714l-71.432 71.431c-15.556 15.556-46.284 28.284-68.284 28.284h-240c-22 0-40-18-40-40v-432c0-22 18-40 40-40h368c22 0 40 18 40 40v304c0 22-12.728 52.729-28.284 68.285zM429.089 353.086c1.565-1.565 3.125-3.487 4.64-5.657h-81.729v81.728c2.17-1.515 4.092-3.075 5.657-4.64l71.432-71.431zM448 3.429c0-4.336-3.664-8-8-8h-368c-4.336 0-8 3.664-8 8v432c0 4.336 3.664 8 8 8h240c2.416 0 5.127-0.305 8-0.852v-127.148h127.148c0.547-2.873 0.852-5.583 0.852-8v-304z" />
<glyph unicode="&#xe634;" d="M48 411.429v-400h400v400h-400zM304 27.429h-240v368h240v-368zM432 27.429h-112v368h112v-368z" />
<glyph unicode="&#xe635;" d="M48 411.429v-400h400v400h-400zM432 27.429h-368v272h368v-272zM432 315.429h-368v80h368v-80z" />
<glyph unicode="&#xe636;" d="M490.248 453.677v-468.497h-468.497v468.497h468.497zM511.582 475.011h-511.163v-511.163h511.163v511.163zM5.214 358.804h499.678v-100.267h-499.678v100.267z" />
<glyph unicode="&#xe637;" d="M48 27.429v400h400v-400h-400zM432 411.429h-368v-272h368v272zM432 123.429h-368v-80h368v80z" />
<glyph unicode="&#xe638;" d="M448 251.429h8c13.2 0 24 10.8 24 24v80c0 13.2-10.8 24-24 24h-8v96h-64v-96h-8c-13.2 0-24-10.8-24-24v-80c0-13.2 10.8-24 24-24h8v-288h64v288zM384 347.429h64v-64h-64v64zM296 59.429c13.2 0 24 10.8 24 24v80c0 13.2-10.8 24-24 24h-8v288h-64v-288h-8c-13.2 0-24-10.8-24-24v-80c0-13.2 10.8-24 24-24h8v-96h64v96h8zM224 155.429h64v-64h-64v64zM136 251.429c13.2 0 24 10.8 24 24v80c0 13.2-10.8 24-24 24h-8v96h-64v-96h-8c-13.2 0-24-10.8-24-24v-80c0-13.2 10.8-24 24-24h8v-288h64v288h8zM64 347.429h64v-64h-64v64z" />
<glyph unicode="&#xe639;" d="M51.2 475.429h69.308v-448h346.24v-64h-415.548v512z" />
<glyph unicode="&#xe63a;" d="M213.333 411.429v-21.334h21.333v21.334h-21.334zM426.666 390.095v21.334h-21.334v-21.334h21.334zM42.666 390.095v21.334h-21.334v42.666h-21.334v-106.666h21.334v42.666h21.334zM341.334 411.429v-21.334h21.334v21.334h-21.334zM277.334 411.429v-21.334h21.334v21.334h-21.334zM512 283.429h-512v-277.334h512v277.334zM42.666 112.762v128h426.666v-128h-426.666zM42.666 48.762v42.666h42.666v-42.666h-42.666zM106.666 48.762v42.666h42.666v-42.666h-42.666zM170.667 48.762v42.666h42.667v-42.666h-42.666zM234.667 48.762v42.666h42.667v-42.666h-42.666zM298.666 48.762v42.666h42.666v-42.666h-42.666zM362.666 48.762v42.666h42.666v-42.666h-42.666zM426.666 48.762v42.666h42.666v-42.666h-42.666zM490.666 454.095v-42.666h-21.334v-21.334h21.334v-42.666h21.334v106.666h-21.334zM85.334 411.429v-21.334h21.334v21.334h-21.334zM149.333 411.429v-21.334h21.333v21.334h-21.334z" />
<glyph unicode="&#xe63b;" d="M444.528 348.453c15.344-37.008 8.032-81.184-22.064-111.28-33.136-33.136-83.216-38.32-122.144-16.352l-28.144-30.736 20.080-20.16 12 12c6.128 6.144 16.080 6.144 22.208 0l97.312-98.304c6.144-6.128 6.144-16.080 0-22.208l-44.416-44.416c-6.128-6.144-16.080-6.144-22.208 0l-97.312 98.304c-6.144 6.128-6.144 16.080 0 22.208l10.96 10.96-19.136 19.184-134.576-147.024c-12.272-12.272-32.16-12.272-44.416 0l-11.104 11.104c-12.272 12.272-12.272 32.16 0 44.416l153.312 128.4-101.824 102.096-32.16 0.016-37.216 59.84 29.952 30 61.2-37.456 0.4-31.488 103.008-103.408 29.968 25.088c-29.296 39.936-26.24 96.192 9.856 132.288 29.952 29.952 73.888 37.392 110.8 22.336l-65.984-65.072 55.536-55.536 66.112 65.2zM98.4 60.485c-6.128 6.128-16.064 6.128-22.208 0-6.144-6.144-6.144-16.080 0-22.224 6.144-6.128 16.080-6.128 22.208 0 6.144 6.16 6.144 16.096 0 22.224z" />
<glyph unicode="&#xe63c;" d="M437.011 400.439c-46.326 46.328-110.318 74.99-181.011 74.99-109.744 0-203.345-69.064-239.749-166.094l59.938-22.477c27.302 72.773 97.503 124.571 179.811 124.571 53.020 0 101.010-21.5 135.753-56.247l-71.753-71.753h192v192l-74.989-74.99zM256 27.429c-53.020 0-101.013 21.496-135.756 56.244l71.756 71.756h-192v-192l74.997 74.997c46.323-46.331 110.309-74.997 181.003-74.997 109.745 0 203.346 69.064 239.75 166.094l-59.938 22.477c-27.302-72.773-97.503-124.571-179.812-124.571z" />
<glyph unicode="&#xe63d;" d="M261.197 461.067c-0.666 5.478-9.728 5.478-10.393 0-22.605-181.965-138.163-219.469-138.163-345.933 0-78.106 65.613-141.44 143.36-141.44s143.36 63.36 143.36 141.44c0 126.464-115.558 163.968-138.163 345.933zM239.386 259.928c-1.536-5.606-3.149-11.392-4.813-17.331-10.266-36.454-21.913-77.798-21.913-125.594 0-25.907-15.309-35.098-29.619-35.098-16.333 0-29.594 13.337-29.594 29.849 0 56.499 27.213 93.389 51.226 125.952 7.526 10.189 14.618 19.815 20.403 29.44 2.637 4.377 9.754 4.198 12.979-0.154 1.459-2.099 1.971-4.659 1.331-7.065z" />
<glyph unicode="&#xe63e;" d="M478.31 183.64l-80.589 191.795c-6.349 12.8-23.245 23.271-37.555 23.271h-208.307c-14.31 0-31.207-10.471-37.581-23.271l-80.563-191.795c-6.4-12.8-9.703-34.816-7.347-48.947l17.408-94.361c2.355-14.106 15.949-25.651 30.233-25.651h364.032c14.31 0 27.904 11.546 30.259 25.651l17.408 94.361c2.279 14.106-0.998 36.147-7.399 48.947zM443.392 116.414l-6.605-38.451c-1.997-14.771-15.309-26.855-29.543-26.855h-302.49c-14.259 0-27.546 12.083-29.543 26.855l-6.63 38.451c-1.971 14.771 8.064 26.855 22.349 26.855h330.137c14.285-0.026 24.32-12.083 22.323-26.855z" />
<glyph unicode="&#xe63f;" d="M457.301 313.594l-85.291 85.76c-16.043 16.128-44.010 16.298-60.373 0.128-4.181-4.181-7.466-9.301-8.918-13.418-13.93-29.056-28.885-47.253-48.085-58.176l-4.63-2.24c-20.65-10.346-48.746-20.886-100.672-20.886-5.674 0-11.114-1.109-16.341-3.243-10.326-4.309-18.752-12.693-23.082-23.125-4.246-10.325-4.246-22.208 0-32.534 2.219-5.312 5.334-10.048 9.28-13.888l69.014-69.014-81.536-114.197 114.176 81.536 68.842-68.843c3.968-4.032 8.661-7.232 13.995-9.408 5.269-2.197 10.731-3.286 16.341-3.286s11.072 1.11 16.32 3.286c10.624 4.373 18.837 12.63 23.040 22.998 2.197 5.163 3.307 10.816 3.307 16.384 0 51.968 10.538 80.043 20.864 100.714 10.582 21.163 29.205 37.291 58.752 51.498 5.781 2.219 10.88 5.462 15.168 9.75 16.469 16.683 16.384 43.755-0.171 60.203zM345.344 211.173c-17.472-35.050-25.344-71.894-25.493-119.552l-170.518 170.474c45.632 0 81.365 7.147 115.114 23.125l5.014 2.24c29.846 14.912 52.651 40.384 72.278 81.792l83.712-86.421c-39.744-19.050-65.195-41.814-80.106-71.659z" />
<glyph unicode="&#xe640;" d="M106 186.725l-52.208-158.976 69.776 70.032c-4.8 12.112-3.616 32.8 6.192 42.592 13.136 13.152 34.768 12.848 47.904-0.304 13.152-13.152 13.856-35.168 0.72-48.32-10-10-31.968-10.576-44.224-5.392l-69.168-69.36 155.216 54.528 56.528 101.824-68.864 67.936-101.872-54.56zM367.696 421.845c0 0-96.176-96.16-111.008-111.008-14.864-14.848-22.624-70.704-22.624-70.704l43.12-43.136c0 0 54.448 7.776 70 23.344 15.568 15.552 111.008 111.008 111.008 111.008l-90.496 90.496z" />
<glyph unicode="&#xe641;" d="M170.667 326.095v-42.666h128v42.666h-128zM170.667 240.762h192v21.334h-192v-21.334zM362.666 219.429h-170.667v-21.334h170.667v21.334zM362.666 155.429v21.334h-149.333v-21.334h149.333zM170.667 176.762h-64v-64h-64v-64h64v-64h64v64h64v64h-64v64zM85.334 432.762v-213.333h42.666v170.666h277.334v-362.666h-141.718l-21.334-42.666h205.718v448h-362.666z" />
<glyph unicode="&#xe642;" d="M486.4 45.349c0 0-51.2 249.165-275.84 249.165v98.995l-184.96-165.248 184.96-171.289v111.565c121.933 0 212.275-10.803 275.84-123.187z" />
<glyph unicode="&#xe643;" d="M301.44 168.536v-111.539l184.96 171.264-184.96 165.248v-98.969c-224.64 0-275.84-249.19-275.84-249.19 63.565 112.384 153.907 123.187 275.84 123.187z" />
<glyph unicode="&#xe645;" d="M389.094 245.029h-107.52v107.52c0 14.131-11.443 15.36-25.6 15.36-14.131 0-25.6-1.203-25.6-15.36v-107.52h-107.495c-14.157 0-15.36-11.469-15.36-25.6s1.203-25.6 15.36-25.6h107.495v-107.52c0-14.131 11.469-15.36 25.6-15.36 14.157 0 25.6 1.229 25.6 15.36v107.52h107.52c14.157 0 15.385 11.469 15.385 25.6s-1.229 25.6-15.385 25.6z" />
<glyph unicode="&#xf002;" d="M0 237.714q0 40.857 15.857 78.143t42.857 64.286 64.285 42.857 78.143 15.857 78.143-15.857 64.286-42.857 42.857-64.286 15.857-78.143q0-62.857-35.428-114l98-98q10.572-10.572 10.572-25.714 0-14.857-10.857-25.714t-25.714-10.857q-15.428 0-25.714 10.857l-98 97.714q-51.143-35.428-114-35.428-40.857 0-78.143 15.857t-64.285 42.857-42.857 64.286-15.857 78.143zM73.143 237.714q0-52.857 37.572-90.428t90.428-37.572 90.429 37.572 37.572 90.428-37.572 90.428-90.428 37.571-90.428-37.571-37.572-90.428z" horiz-adv-x="476" />
<glyph unicode="&#xf003;" d="M0 45.714v310.857q0 18.857 13.428 32.285t32.285 13.429h420.572q18.857 0 32.286-13.429t13.428-32.285v-310.857q0-18.857-13.428-32.286t-32.286-13.428h-420.572q-18.857 0-32.285 13.428t-13.428 32.286zM36.572 45.714q0-3.714 2.715-6.428t6.428-2.714h420.572q3.714 0 6.428 2.714t2.714 6.428v219.428q-9.143-10.286-19.714-18.857-76.572-58.857-121.714-96.572-14.572-12.286-23.714-19.143t-24.714-13.857-29.286-7h-0.571q-13.714 0-29.285 7t-24.714 13.857-23.714 19.143q-45.143 37.714-121.715 96.572-10.572 8.572-19.715 18.857v-219.428zM36.572 356.572q0-48 42-81.143 55.143-43.428 114.572-90.572 1.714-1.428 10-8.428t13.143-10.714 12.714-9 14.428-7.857 12.286-2.572h0.572q5.714 0 12.286 2.572t14.428 7.857 12.714 9 13.143 10.714 10 8.428q59.428 47.143 114.572 90.572 15.428 12.286 28.714 33t13.286 37.572v7t-0.143 3.714-0.857 3.572-1.572 2.571-2.572 2.143-4 0.714h-420.572q-3.715 0-6.428-2.714t-2.715-6.428z" />
<glyph unicode="&#xf014;" d="M0 338.286v18.286q0 4 2.571 6.572t6.572 2.571h88.285l20 47.715q4.285 10.572 15.428 18t22.571 7.428h91.428q11.428 0 22.572-7.428t15.428-18l20-47.715h88.286q4 0 6.572-2.571t2.572-6.572v-18.286q0-4-2.572-6.571t-6.572-2.572h-27.428v-270.857q0-23.714-13.428-41t-32.286-17.286h-237.714q-18.857 0-32.285 16.714t-13.428 40.428v272h-27.428q-4 0-6.572 2.571t-2.571 6.572zM73.143 58.286q0-6.286 2-11.572t4.143-7.714 3-2.428h237.714q0.857 0 3 2.428t4.143 7.714 2 11.572v270.857h-256v-270.857zM109.715 100.572v164.571q0 4 2.572 6.572t6.572 2.571h18.285q4 0 6.571-2.571t2.571-6.572v-164.572q0-4-2.571-6.572t-6.572-2.572h-18.285q-4 0-6.572 2.572t-2.572 6.572zM137.143 365.714h128l-13.714 33.429q-2 2.571-4.857 3.143h-90.571q-2.857-0.572-4.857-3.143zM182.857 100.572v164.571q0 4 2.571 6.572t6.572 2.571h18.286q4 0 6.572-2.571t2.571-6.572v-164.572q0-4-2.571-6.572t-6.572-2.572h-18.286q-4 0-6.572 2.572t-2.571 6.572zM256 100.572v164.571q0 4 2.572 6.572t6.572 2.571h18.286q4 0 6.572-2.571t2.572-6.572v-164.572q0-4-2.572-6.572t-6.572-2.572h-18.286q-4 0-6.572 2.572t-2.572 6.572z" horiz-adv-x="403" />
<glyph unicode="&#xf067;" d="M0 210.286v54.857q0 11.429 8 19.429t19.428 8h118.857v118.857q0 11.428 8 19.428t19.428 8h54.857q11.429 0 19.429-8t8-19.428v-118.857h118.857q11.428 0 19.428-8t8-19.428v-54.857q0-11.428-8-19.428t-19.428-8h-118.857v-118.857q0-11.428-8-19.428t-19.429-8h-54.857q-11.429 0-19.429 8t-8 19.428v118.857h-118.857q-11.428 0-19.428 8t-8 19.428z" horiz-adv-x="403" />
<glyph unicode="&#xf08a;" d="M0 305.143q0 62.857 36.285 98.286t100.285 35.428q17.715 0 36.143-6.143t34.286-16.572 27.286-19.571 21.714-19.429q10.286 10.286 21.714 19.429t27.286 19.571 34.286 16.572 36.143 6.143q64 0 100.286-35.428t36.286-98.286q0-63.143-65.428-128.571l-178-171.428q-5.143-5.143-12.572-5.143t-12.572 5.143l-178.286 172q-2.857 2.286-7.857 7.428t-15.857 18.714-19.428 27.857-15.286 34.572-6.715 39.428zM36.572 305.143q0-48 53.428-101.428l166-160 165.714 159.714q53.714 53.714 53.714 101.714 0 23.143-6.143 40.857t-15.714 28.143-23.286 17-26.857 8.857-28 2.286-32-7.286-31.572-18.286-24.714-20.571-17.143-17.572q-5.143-6.286-14-6.286t-14 6.286q-6.857 8-17.143 17.571t-24.715 20.572-31.572 18.286-32 7.286-28-2.286-26.857-8.857-23.285-17-15.715-28.143-6.143-40.857z" />
<glyph unicode="&#xf08e;" d="M0 118.857v237.714q0 34 24.143 58.143t58.143 24.143h201.143q4 0 6.572-2.572t2.572-6.572v-18.285q0-4-2.572-6.572t-6.572-2.572h-201.143q-18.857 0-32.285-13.428t-13.428-32.286v-237.714q0-18.857 13.428-32.286t32.285-13.428h237.715q18.857 0 32.286 13.428t13.428 32.286v91.428q0 4 2.572 6.572t6.572 2.571h18.286q4 0 6.572-2.571t2.572-6.572v-91.428q0-34-24.143-58.143t-58.143-24.143h-237.714q-34 0-58.143 24.143t-24.143 58.143zM195.714 201.143q0 3.714 2.857 6.572l186.285 186.286-50.286 50.285q-5.428 5.429-5.428 12.857t5.428 12.857 12.857 5.428h146.286q7.428 0 12.857-5.428t5.428-12.857v-146.286q0-7.428-5.428-12.857t-12.857-5.428-12.857 5.428l-50.286 50.286-186.286-186.286q-2.857-2.857-6.572-2.857t-6.572 2.857l-32.572 32.572q-2.857 2.857-2.857 6.572z" />
<glyph unicode="&#xf0c9;" d="M0 54.857v36.572q0 7.428 5.428 12.857t12.857 5.428h402.286q7.428 0 12.857-5.428t5.428-12.857v-36.572q0-7.428-5.428-12.857t-12.857-5.428h-402.286q-7.428 0-12.857 5.428t-5.428 12.857zM0 201.143v36.572q0 7.428 5.428 12.857t12.857 5.429h402.286q7.428 0 12.857-5.428t5.428-12.857v-36.571q0-7.428-5.428-12.857t-12.857-5.428h-402.286q-7.428 0-12.857 5.428t-5.428 12.857zM0 347.429v36.572q0 7.428 5.428 12.857t12.857 5.428h402.286q7.428 0 12.857-5.428t5.428-12.857v-36.572q0-7.428-5.428-12.857t-12.857-5.428h-402.286q-7.428 0-12.857 5.428t-5.428 12.857z" />
<glyph unicode="&#xf121;" d="M12.857 201.143q0 3.714 2.857 6.572l133.143 133.143q2.857 2.857 6.571 2.857t6.572-2.857l14.286-14.286q2.857-2.857 2.857-6.571t-2.857-6.572l-112.285-112.286 112.285-112.286q2.857-2.857 2.857-6.572t-2.857-6.572l-14.286-14.286q-2.857-2.857-6.572-2.857t-6.572 2.857l-133.143 133.143q-2.857 2.857-2.857 6.572zM203.429 21.714l106.571 368.857q1.143 3.714 4.428 5.572t6.714 0.714l17.714-4.857q3.714-1.143 5.572-4.428t0.714-7l-106.572-368.857q-1.143-3.714-4.428-5.572t-6.714-0.714l-17.714 4.857q-3.714 1.143-5.572 4.428t-0.714 7zM369.428 82.286q0 3.714 2.857 6.572l112.286 112.286-112.286 112.286q-2.857 2.857-2.857 6.572t2.857 6.572l14.286 14.286q2.857 2.857 6.572 2.857t6.572-2.857l133.143-133.143q2.857-2.857 2.857-6.572t-2.857-6.572l-133.143-133.143q-2.857-2.857-6.572-2.857t-6.572 2.857l-14.286 14.286q-2.857 2.857-2.857 6.572z" horiz-adv-x="549" />
<glyph unicode="&#xf13c;" d="M3.429 58l20.285 101.714h84.857l-8.285-42 120.572-46 138.857 46 19.428 96.857h-345.143l16.572 84.857h345.428l10.857 54.572h-345.143l16.857 84.857h430l-76-380.857-229.714-76.286z" />
<glyph unicode="&#xf14c;" d="M0 82.286v274.286q0 34 24.143 58.143t58.143 24.143h274.286q34 0 58.143-24.143t24.143-58.143v-274.286q0-34-24.143-58.143t-58.143-24.143h-274.286q-34 0-58.143 24.143t-24.143 58.143zM80.572 128q0-7.428 5.428-12.857l29.143-29.143q5.428-5.428 12.857-5.428t12.857 5.428l152.571 152.571 41.143-41.143q5.143-5.428 12.857-5.428 3.428 0 7.143 1.428 11.143 4.857 11.143 16.857v137.143q0 7.429-5.428 12.857t-12.857 5.428h-137.143q-12 0-16.857-11.143-4.857-11.714 4-20l41.143-41.143-152.571-152.571q-5.428-5.428-5.428-12.857z" />
</font>
</defs>
</svg>
